#TITLE:Agent Blatant;
#SUBTITLE:;
#ARTIST:Ernest + Julio;
#TITLETRANSLIT:;
#SUBTITLETRANSLIT:;
#ARTISTTRANSLIT:;
#GENRE:Electronic Score;
#CREDIT:;
#BANNER:Agent Blatant-banner.png;
#BACKGROUND:Agent Blatant-bg.png;
#LYRICSPATH:;
#CDTITLE:;
#MUSIC:Agent Blatant.ogg;
#OFFSET:0.019;
#SAMPLESTART:65.200;
#SAMPLELENGTH:11.960;
#SELECTABLE:YES;
#BPMS:0.000=161.993,112.000=80.996,144.000=161.993;
#STOPS:;
#BGCHANGES:0.000=Agent Blatant-bg.png=1.000=0=0=1=====,
16.000=In The Groove 2/920_JumpBack.mpg=1.000=0=0=1===SlideLeft==,
32.000=-random-=1.000=0=0=1===SlideRight==,
48.000=-random-=1.000=0=0=1===FadeUp==,
64.000=-random-=1.000=0=0=1===FadeDown==,
80.000=-random-=1.000=0=0=1=====,
96.000=-random-=1.000=0=0=1===SlideLeft==,
112.000=In The Groove 2/451_JumpBack.mpg=1.000=0=0=1=SongBgWithMovieViz====,
120.000=In The Groove 2/429_JumpBack.mpg=1.000=0=0=1=SongBgWithMovieViz====0.5^0.5^0.5^1,
128.000=In The Groove 2/620_JumpBack.mpg=1.000=0=0=1===SlideRight==,
136.000=In The Groove 2/461_JumpBack.mpg=1.000=0=0=1===SlideRight==,
144.000=-random-=1.000=0=0=1=====,
160.000=-random-=1.000=0=0=1===SlideLeft==,
176.000=-random-=1.000=0=0=1===FadeRight==,
192.000=-random-=1.000=0=0=1===FadeUp==,
208.000=-random-=1.000=0=0=1=====,
224.000=-random-=1.000=0=0=1===SlideLeft==,
240.000=Agent Blatant-bg.png=1.000=0=0=1=====,
99999=-nosongbg-=1.000=0=0=0 // don't automatically add -songbackground-
;
#BGCHANGES2:80.000=white flash=1.000=0=0=1=====,
112.000=yellow flash=1.000=0=0=1=====,
120.000=yellow flash=1.000=0=0=1=====,
144.000=white flash=1.000=0=0=1=====,
208.000=white flash=1.000=0=0=1=====,
236.000=yellow flash=1.000=0=0=1=====,
240.000=white flash=1.000=0=0=1=====,
;
#KEYSOUNDS:;
// cache tags:
#FIRSTBEAT:16.000;
#LASTBEAT:240.500;
#SONGFILENAME:/Songs/In The Groove 2/Agent Blatant/Agent Blatant.sm;
#HASMUSIC:0;
#HASBANNER:0;
#MUSICLENGTH:100.000;
// end cache tags

//---------------dance-single - ----------------
#NOTES:
     dance-single:
     :
     Easy:
     5:
     0.257,0.300,0.080,0.090,0.035,163.000,8.000,9.000,0.000,0.000,0.000:
0000
0000
0000
0000
,
0000
0000
0000
0000
,
0000
0000
0000
0000
,
0000
0000
0000
0000
,
1000
0000
0000
1000
0000
0100
0000
0000
,
0000
1000
0000
0100
0000
1000
0000
0000
,
0100
0000
0000
0010
0000
0001
0000
0000
,
0000
0010
0000
0001
0000
0010
0000
0000
,
0001
0000
0000
0001
0000
0100
0000
0000
,
0000
0010
0000
0100
0000
0010
0000
0000
,
0100
0000
0000
0001
0000
0100
0000
0000
,
0000
0010
0000
0100
0000
0010
0000
0000
,
0010
0000
0000
1000
0000
0010
0000
0000
,
0000
1000
0000
0001
0000
1000
0000
0000
,
0010
0000
0000
0100
0000
0001
0000
0000
,
0000
0001
0000
0100
0000
0001
0000
0000
,
0100
0000
0000
0001
0000
0010
0000
0000
,
0000
0010
0000
0100
0000
0010
0000
0000
,
0100
0000
0000
0010
0000
0001
0000
0000
,
0000
0000
0000
0000
,
1000
0000
0100
0000
0000
0010
0000
0001
,
0000
0000
1000
0000
0001
1000
0001
0000
,
1000
0000
0100
0000
0000
0010
0000
0001
,
0000
0000
1000
0000
0001
1000
0001
0000
,
0001
0000
0010
0000
0000
0100
0000
1000
,
0000
0000
1000
0000
0001
1000
0001
0000
,
1000
0000
0001
0000
0000
1000
0000
0001
,
0000
1000
0002
1000
0003
0000
0000
0000
,
2000
0000
0000
3001
1000
0002
0000
0000
,
0203
0000
0320
0000
,
2030
0000
0000
3001
1000
0001
1000
0001
,
2000
0000
0000
0000
,
3000
0000
0010
0000
0000
0010
0000
0000
0000
0000
1000
0000
0000
0100
0000
0000
,
0000
0000
0010
0000
0000
0010
0000
0000
0000
0000
0001
0000
0000
0100
0000
0000
,
0000
0000
0010
0000
0000
0010
0000
0000
0000
0000
0100
0000
0000
0001
0000
0000
,
0000
0000
0100
0000
0000
0100
0000
0000
0000
0000
0000
0000
0000
0000
0000
0000
,
1001
0000
0000
1000
,
0010
0001
0000
0100
,
1000
0000
0000
0000
,
0001
0000
0000
0000
,
0010
0000
0000
0001
,
0010
0100
1000
1000
,
1001
0000
0000
0000
,
0000
0000
0000
0000
,
1001
0000
0000
0001
,
0010
0100
0000
1000
,
1000
0000
0000
0000
,
1001
0000
0000
0000
,
0110
0000
0000
1000
,
0100
0010
0001
0001
,
1001
0000
0000
0000
,
0000
0000
0000
0000
,
0001
0000
0010
0000
0000
0001
0000
0010
,
0000
0000
0001
0000
0100
0001
0100
0001
,
0100
0000
0100
0000
0000
0010
0000
1000
,
0000
0000
0100
0000
1000
0100
1000
0100
,
1000
0000
0001
0000
0000
0100
0000
0010
,
0000
0000
1000
0000
0100
0010
0100
0010
,
0100
0000
1000
0000
0000
0001
0000
2002
,
0000
0000
0000
3003
,
1001
0000
0000
0000
;

//---------------dance-single - .----------------
#NOTES:
     dance-single:
     .:
     Medium:
     6:
     0.333,0.330,0.210,0.130,0.035,199.000,21.000,13.000,0.000,0.000,0.000:
0000
0000
0000
0000
,
0000
0000
0000
0000
,
0000
0000
0000
0000
,
0000
0000
0000
0000
,
1001
0000
0000
1000
0000
0010
0000
0000
,
0000
0100
0000
0001
0000
0010
0100
0000
,
1100
0000
0000
1000
0000
0010
0000
0000
,
0000
0100
0000
0010
0000
1000
0010
0000
,
1010
0000
0000
0010
0000
1000
0000
0000
,
0000
0100
0000
0010
0000
0001
0010
0000
,
0011
0000
0000
0001
0000
0100
0000
0000
,
0000
0010
0000
0100
0000
0010
1000
0000
,
0200
0000
0300
0010
0000
0001
0000
0000
,
0000
0001
0000
0100
0000
0010
0010
0000
,
2000
0000
3000
0100
0000
1000
0000
0000
,
0000
0010
0000
0100
0000
0010
0010
0000
,
0200
0000
0300
1000
0000
0100
0000
0000
,
0000
0010
0000
1000
0000
0010
0010
0000
,
0200
0000
0300
0001
0000
1001
0000
0000
,
0000
0000
0000
0000
,
1000
0000
0100
0000
0000
0010
0000
0001
,
0000
0000
0010
0000
0001
0100
0100
0000
,
0001
0000
0010
0000
0000
1000
0000
0010
,
0000
0000
0100
0000
1000
0010
0100
0000
,
0010
0000
0001
0000
0000
0010
0000
1000
,
0000
0000
1000
0000
0100
0010
0001
0000
,
1000
0000
0010
0000
0000
0001
0000
0010
,
0000
1000
0100
2000
0000
0000
3000
0000
,
0002
0000
0000
1003
0100
0010
0000
0100
,
0020
0000
0032
0000
,
2003
0000
0000
3001
0010
0100
0010
0001
,
0022
0000
0000
0000
,
0033
0000
0001
0000
0000
1010
0000
0000
0000
0000
1000
0000
0000
0100
0000
0000
,
0000
0000
0010
0000
0000
0110
0000
0000
0000
0000
0001
0000
0000
0010
0000
0000
,
0000
0000
0100
0000
0000
0110
0000
0000
0000
0000
1000
0000
0000
0010
0000
0000
,
0000
0000
0100
0000
0000
1010
0000
0000
0000
0000
0000
0000
0000
0000
0000
0000
,
1001
0000
0000
1000
0000
0001
0000
0000
,
0000
0010
0000
0100
0000
1000
1000
0000
,
1010
0000
0000
0010
0000
0100
0000
0000
,
0000
0001
0000
0010
0000
0100
1000
0000
,
1100
0000
0000
1000
0000
0001
0000
0000
,
0000
0100
0000
0010
0000
0010
1000
0000
,
1010
0000
0000
0100
0000
0001
0000
0000
,
0000
0100
0000
0010
0000
0100
0100
0000
,
1001
0000
0000
0010
0000
0100
0000
0000
,
0000
0001
0000
0010
0000
0100
0100
0000
,
1100
0000
0000
1000
0000
1000
0000
0000
,
0000
0010
0000
0100
0000
0001
0001
0000
,
0101
0000
0000
0001
0000
1000
0000
0000
,
0000
0100
0000
0010
0000
0001
0100
0000
,
0101
0000
0000
0010
0000
0100
0000
0000
,
0000
0010
0000
1000
0000
0100
0001
0000
,
0101
0000
0100
0000
0000
1000
0000
0010
,
0000
0000
0010
0000
1000
0100
0010
0001
,
0010
0000
0100
0000
0000
1000
0000
0010
,
0000
0000
1000
0000
1000
0100
0010
0001
,
0010
0000
0001
0000
0000
0100
0000
0010
,
0000
0000
1000
0000
0001
0100
0010
1000
,
0010
0000
0010
0000
0000
0100
0000
2002
,
0000
0000
0000
3003
,
0110
0000
0000
0000
;

//---------------dance-single - .----------------
#NOTES:
     dance-single:
     .:
     Hard:
     7:
     0.411,0.540,0.460,0.200,0.085,222.000,46.000,20.000,24.000,0.000,0.000:
0000
0000
0000
0000
,
0000
0000
0000
0000
,
0000
0000
0000
0000
,
0000
0000
0000
0000
,
0000
1001
0000
0000
0110
0000
0000
1100
,
0000
0000
0101
0000
0000
1001
0000
0000
,
0000
0110
0000
0000
1100
0000
0000
0011
,
0000
0000
0000
1010
0000
1001
1100
0000
,
0000
1001
0000
0000
0110
0000
0000
1100
,
0000
0000
0101
0000
0000
1001
0000
0000
,
0000
0110
0000
0000
1100
0000
0000
0011
,
0000
0000
0000
1010
0000
1001
1100
0000
,
1000
0100
0010
0001
0010
0100
0200
0000
,
0320
0032
0000
2003
,
3001
0010
0100
1000
0100
0010
0001
0010
,
0002
0000
0000
0000
,
1003
0010
0100
0001
1000
0010
2000
0000
,
3020
0032
0023
2030
,
3001
0010
0100
1000
0001
0010
0100
1000
,
0002
0000
0000
0003
0000
0000
0000
0000
,
1001
0000
0100
0000
0000
0010
0000
0100
,
0000
0000
0001
0000
0001
0100
0010
1000
,
1001
0000
0001
0000
0000
0100
0000
0001
,
0000
0000
0001
0000
1000
0100
0010
0001
,
1001
0000
0100
0000
0000
0010
0000
0010
,
0000
0000
1000
0000
0001
0100
0010
1000
,
1001
0000
0100
0000
0000
0001
0000
1000
,
0000
0000
1001
0000
0100
0000
2002
0000
0000
0000
0000
0000
0000
3003
0000
0000
,
0002
0000
0000
0103
0010
0100
1000
0100
,
0002
0000
0203
0000
,
0302
0000
0000
0013
0100
0001
0100
1000
,
0002
0000
0000
0000
,
1003
0000
0000
1001
0000
0100
0000
0000
0000
1100
0000
0001
0000
1000
0100
0000
,
0010
0000
0000
0011
0000
0100
0000
0000
0000
1100
0000
0001
0000
0001
0010
0000
,
0100
0000
0000
1100
0000
1000
0000
0000
0000
1010
0000
0100
0000
0010
0100
0000
,
0100
0000
0000
0011
0000
0001
0000
0000
0000
0000
0000
0000
0000
0000
0000
0000
,
M1MM
0000
0000
0001
0000
0100
0000
0000
,
0000
0010
0000
1000
0000
1000
0100
0000
,
M1MM
0000
0000
0010
0000
0001
0000
0000
,
0000
0001
0000
0100
0000
0010
1000
0000
,
1MMM
0000
0000
0001
0000
0001
0000
0000
,
0000
0100
0000
0010
0000
0010
1000
0000
,
MM1M
0000
0000
1000
0000
0010
0000
0000
,
0000
0100
0000
0010
0000
0100
0100
0000
,
MM1M
0000
0000
1000
0000
0100
0000
0000
,
0000
0001
0000
0100
0000
1000
1000
0000
,
1M1M
0000
0000
1000
0000
0010
0000
0000
,
0000
0010
0000
1000
0000
0010
0100
0000
,
MMM1
0000
0000
1000
0000
1000
0000
0000
,
0000
0010
0000
1000
0000
0010
0100
0000
,
M1M1
0000
0000
0001
0000
0100
0000
0000
,
0000
0010
0000
1000
0000
0100
0100
0000
,
1001
0000
1100
0000
0000
1000
0000
0010
,
0000
0000
0010
0000
1001
0100
0010
0001
,
0010
0000
0100
0000
0000
0001
0000
0010
,
0000
0000
0100
0000
1001
0100
0010
1000
,
0001
0000
0001
0000
0000
0100
0000
0010
,
0000
0000
1000
0000
0101
0100
0010
1000
,
0010
0000
1100
0000
0000
0011
0000
2002
,
0000
0000
0000
3003
,
M11M
0000
0000
0000
;

//---------------dance-single - C. Foy----------------
#NOTES:
     dance-single:
     C. Foy:
     Challenge:
     10:
     0.701,0.690,0.140,0.210,0.725,456.000,14.000,21.000,7.000,0.000,0.000:
0000
0000
0000
0000
,
0000
0000
0000
0000
,
0000
0000
0000
0000
,
0000
0000
0000
0000
,
1000
0000
0000
0000
0001
0000
0001
0100
0000
0000
0010
0000
1000
0100
1000
0000
,
1000
0000
0010
0000
0100
0000
0100
0001
0000
0001
1000
0000
0010
0100
0001
0000
,
1000
0000
0000
0000
0100
0000
0100
0010
0000
0000
0001
0000
0100
0010
1000
0000
,
0010
0000
1000
0000
0100
0000
0100
0010
0000
0010
0001
0000
0001
1000
0100
0000
,
0100
0000
0000
0000
0010
0000
0001
0100
0000
0000
0010
0000
0100
0001
1000
0000
,
0010
0000
1000
0000
0001
0000
0001
0100
0000
0100
0010
0000
1000
0100
0010
0000
,
0001
0000
0000
0000
0100
0000
0010
1000
0000
0000
0010
0000
0100
0010
1000
0000
,
0001
0000
0010
0000
0100
0000
0100
1000
0000
1000
0100
0000
1000
0001
1000
0000
,
1000
0100
0010
0001
1000
0100
0010
0001
1000
0100
0010
0001
0200
0000
0000
0000
,
0320
2030
0000
3200
,
1300
0001
0010
0100
1000
0001
0010
0100
1000
0001
0010
0100
1000
0001
0010
0100
,
2000
0000
0000
0000
0001
0000
0000
0001
0000
0000
0010
0000
0010
0000
0000
0000
,
3010
1000
0001
0100
0010
1000
0001
0100
0010
1000
0001
0100
0002
0000
0000
0000
,
0203
2300
3200
0302
,
1003
0000
0000
0000
0100
0000
0000
0010
0000
0000
0001
0000
0100
0010
0000
1000
,
0000
0010
1000
0000
0M0M
0010
0000
0100
0000
0000
0000
0010
0000
0000
0000
0000
,
1000
0000
0000
0000
0001
0100
0000
0000
0000
0000
0010
0000
0010
1000
0001
0000
,
0000
0000
0000
0000
0001
1000
0000
0000
1000
0000
0100
0000
0010
0001
0010
0000
,
0001
0000
0000
0000
0001
0100
0000
0000
0000
0000
0010
0000
1000
0100
0010
0000
,
0000
0000
0000
0000
0010
0100
0000
0000
0100
0000
1000
0000
0001
0100
0010
0000
,
0100
0000
0000
0000
0010
1000
0000
0000
0000
0000
0100
0000
0010
0100
1000
0000
,
0000
0000
0000
0000
1000
0010
0000
0000
0100
0000
0001
0000
0100
0010
1000
0000
,
0100
0000
0000
0000
0010
0001
0000
0000
0000
0000
0001
0000
1000
0100
1000
0000
,
0000
0000
1001
0000
01M0
0000
2002
0000
0000
0000
0000
0000
0000
3003
0000
0000
,
0002
0000
0000
0203
2300
3200
0000
0301
,
0001
0100
0001
0010
0001
1000
0100
1000
0200
0000
0000
0000
0000
0000
0000
0000
,
0302
0000
0000
0103
0001
0100
0010
0001
,
0002
0000
0000
0000
,
1003
0000
0000
0001
0000
0100
0000
0000
0000
0010
0000
0100
0000
0001
0010
0000
,
0100
0000
0000
1000
0000
0010
0000
0000
0000
0001
0000
0010
0000
1000
0100
0000
,
0100
0000
0010
0000
0001
0000
0000
0000
0100
0000
0010
0000
0000
0000
1000
0000
0000
0000
0100
0000
1000
0000
0000
0000
0001
0000
1000
0000
0000
0000
0100
1000
,
0100
0000
1000
0000
0010
0000
0000
0000
0100
0000
0100
0000
0000
0000
0000
0000
0001
0100
0000
0100
0010
0000
0010
1000
0000
0000
0000
0000
0000
0000
0000
0000
,
1000
0000
0000
0000
0001
0000
1000
0100
0000
0000
1000
0000
1000
0100
1000
0000
,
0001
0000
0100
0000
0001
0000
0100
0001
0000
0001
0100
0000
0010
1000
0010
0000
,
1000
0000
0000
0000
0010
0000
0010
1000
0000
0000
0100
0000
0010
0100
0010
0000
,
0100
0000
1000
0000
0100
0000
0100
0010
0000
0010
0001
0000
0001
0100
0010
0000
,
0100
0000
0000
0000
0010
0000
1000
0100
0000
0000
0010
0000
0001
1000
0001
0000
,
0100
0000
0100
0000
0010
0000
0100
0010
0000
1000
0010
0000
0100
0010
1000
0000
,
0001
0000
0000
0000
0001
0000
0010
0001
0000
0000
0001
0000
0100
0010
1000
0000
,
0001
0000
0010
0000
0100
0000
0100
1000
0000
1000
0100
0000
0100
1000
0100
0000
,
1000
0000
0000
0000
0001
0000
0001
0100
0000
0000
0010
0000
1000
0100
1000
0000
,
0010
0000
1000
0000
0100
0000
1000
0001
0000
1000
0010
0000
0010
1000
0010
0000
,
0100
0000
0000
0000
0100
0000
0001
0100
0000
0000
0100
0000
0001
0010
0100
0000
,
0010
0000
0001
0000
0100
0000
0100
0010
0000
0010
1000
0000
1000
0001
1000
0000
,
0001
0000
0000
0000
0100
0000
0010
1000
0000
0000
1000
0000
0100
1000
0001
0000
,
0100
0000
0100
0000
0001
0000
0001
0100
0000
0100
0010
0000
1000
0100
0010
0000
,
0001
0000
0000
0000
0100
0000
0001
1000
0000
0000
0010
0000
0100
0010
0100
0000
,
0001
0000
0010
0000
0100
0000
0100
1000
0000
1000
0010
0000
0010
1000
0010
0000
,
1001
0000
0000
0000
1001
0000
0001
0100
0000
0000
0010
0000
1000
0001
1000
0000
,
0001
0000
0100
0000
0010
0000
1000
0001
0100
0010
1000
0000
0010
0100
0001
0000
,
0101
0000
0000
0000
0100
0000
0100
0010
0000
0000
0010
0000
1000
0010
1000
0000
,
0010
0000
1000
0000
0100
0000
0100
0010
0001
0010
0100
0000
1000
0001
0100
0000
,
0101
0000
0000
0000
0011
0000
0001
0100
0000
0000
0110
0000
0100
0001
0100
0000
,
0010
0000
1000
0000
1001
0000
0001
0100
0001
0100
0010
0000
1000
0010
0100
0000
,
1010
0000
0000
0000
1100
0000
0010
1000
0000
0000
0011
0000
0000
0000
2MM2
0000
,
0000
0000
0000
3003
,
M11M
0000
0000
0000
;

//---------------dance-double - M.Emirzian----------------
#NOTES:
     dance-double:
     M.Emirzian:
     Easy:
     3:
     0.190,0.210,0.090,0.110,0.000,113.000,9.000,11.000,0.000,0.000,0.000:
00000000
00000000
00000000
00000000
,
00000000
00000000
00000000
00000000
,
00000000
00000000
00000000
00000000
,
00000000
00000000
00000000
00000000
,
00010000
00000000
00000000
10000000
00000000
00000000
00000000
00000000
,
00000000
00100000
00000000
00100000
00000000
00000000
00000000
00000000
,
10000000
00000000
00000000
00010000
00000000
00000000
00000000
00000000
,
00000000
01000000
00000000
01000000
00000000
00000000
00000000
00000000
,
00001000
00000000
00000000
00010000
00000000
00000000
00000000
00000000
,
00000000
00000010
00000000
00000010
00000000
00000000
00000000
00000000
,
00000001
00000000
00000000
00001000
00000000
00000000
00000000
00000000
,
00000000
00000100
00000000
00000100
00000000
00000000
00000000
00000000
,
00000001
00000000
00000000
00000100
,
00000010
00001000
00000000
00000100
,
00020000
00000000
00000000
00000000
,
00032000
00000000
00000000
00000000
,
00013000
00000000
00000000
00001000
,
01000000
00010000
01000000
00001000
,
00020000
00000000
00000000
00000000
,
10030000
00000000
00000000
00000000
,
01000000
00000000
01000000
00000000
00000000
00000000
00000000
00110000
,
00000000
00000000
01000000
00001000
,
00010000
00000000
00000100
00000000
00000000
00000000
00000000
00001010
,
00000000
00000000
00000001
00000100
,
00000010
00000000
00001000
00000000
00000000
00000000
00000000
00001100
,
00000000
00000000
00010000
00001000
,
01000000
00000000
00010000
00000000
00000000
00000000
00000000
10010000
,
00000000
00000000
01000000
00000000
,
01000000
00000000
00000000
00000000
,
10000000
00000000
00000000
00000000
,
00010000
00000000
00000000
00000000
,
00001000
00000000
00000000
00000000
,
00010000
00000000
00000001
00000000
,
00000100
00000000
00001000
00000000
,
00010000
00000000
01000000
00000000
,
10000000
00000000
00000000
00000000
20020000
00000000
00000000
30030000
,
00100000
00000000
00000000
10000000
,
01000000
00100000
00000000
00001000
,
00020000
00000000
00000000
00000000
,
00030200
00000000
00000000
00000000
,
00000310
00000000
00000000
00000001
,
00000100
00000010
00010000
00001000
,
02000000
00000000
00000000
00000000
,
03100000
00000000
00000000
00000000
,
10000000
00000000
00000000
01000000
,
00100000
00010000
00000000
10000000
,
02000000
00000000
00000000
00000000
,
03200000
00000000
00000000
00000000
,
00301000
00000000
00000000
00010000
,
00000100
00001000
00000010
00000100
,
00000002
00000000
00000000
00000000
,
00000013
00000000
00000000
00000000
,
00000100
00000000
00001000
00000000
00000000
00000000
00000000
00000110
,
00000000
00000000
00010000
00001000
,
01000000
00000000
00010000
00000000
00000000
00000000
00000000
01100000
,
00000000
00000000
10000000
01000000
,
00100000
00000000
00010000
00000000
00000000
00000000
00000000
00101000
,
00000000
00000000
00010000
00001000
,
00000100
00000000
00000001
00000000
00000000
00000000
00000000
00000010
,
00000000
00000100
00000000
00000000
00001000
00000000
00000000
00000000
,
00001001
00000000
00000000
00000000
;

//---------------dance-double - M.Emirzian----------------
#NOTES:
     dance-double:
     M.Emirzian:
     Medium:
     5:
     0.291,0.330,0.350,0.060,0.000,163.000,35.000,6.000,0.000,0.000,0.000:
00000000
00000000
00000000
00000000
,
00000000
00000000
00000000
00000000
,
00000000
00000000
00000000
00000000
,
00000000
00000000
00000000
00000000
,
00100000
00000000
00000000
10000000
00000000
11000000
00000000
00000000
,
00000000
00100000
00000000
00110000
00000000
00001000
00000000
00000000
,
00010000
00000000
00000000
00001000
00000000
00010100
00000000
00000000
,
00000000
00001000
00000000
00001010
00000000
00000100
00000000
00000000
,
00000001
00000000
00000000
00000010
00000000
00001100
00000000
00000000
,
00000000
00000001
00000000
00000110
00000000
00001000
00000000
00000000
,
00000100
00000000
00000000
00001000
00000000
00011000
00000000
00000000
,
00000000
00001000
00000000
01010000
00000000
00100000
00000000
00000000
,
10000000
00000000
00000000
01000000
,
10010000
01000000
00000000
00100000
,
10010000
00000000
00000000
00000000
,
00011000
00000000
00000000
00000000
,
00000100
00000000
00000000
00000001
,
00000010
00001001
00000100
00000010
,
00002020
00000000
00000000
00000000
,
00000000
00000000
00000000
00003030
,
00001000
00000000
00000100
00000000
00000000
00010000
00000000
00011000
,
00000000
00000000
00010000
00001000
01000000
00010000
00100000
01000000
,
10000000
00000000
00100000
00000000
00000000
01000000
00000000
01010000
,
00000000
00000000
00100000
00001000
00010000
00000100
00001000
00000001
,
00000010
00000000
00000100
00000000
00000000
00001000
00000000
00001100
,
00000000
00000000
00000001
00000100
00000010
00001000
00000100
00010000
,
00001000
00000000
01000000
00000000
00000000
00100000
00000000
11000000
,
00000000
00010000
00000000
01001000
00000000
00000000
00000000
00000000
,
00100000
00000000
10000000
00000000
,
01000000
00000000
00010000
00000000
,
00100000
00000000
00001000
00000000
,
00000100
00000000
00000001
00000000
,
00000010
00001000
00000100
00000001
,
00000100
00010000
00001000
01000000
,
10000000
01000000
00010000
00100000
,
00001000
00010000
00000100
00001000
,
00001001
00000000
00000000
00000100
,
00001001
00000010
00000000
00000100
,
00001100
00000000
00000000
00000000
,
01010000
00000000
00000000
00000000
,
00100000
00000000
00000000
01000000
,
00100000
10010000
01000000
00010000
,
00022000
00000000
00000000
00000000
,
00000000
00000000
00000000
00033000
,
00010000
00000000
00000000
00000100
,
00010100
00010000
00000000
00000100
,
00001100
00000000
00000000
00000000
,
00001001
00000000
00000000
00000000
,
00000010
00000000
00000000
00000100
,
00001001
00000001
00000010
00001000
,
00002020
00000000
00000000
00000000
,
00000000
00000000
00000000
00003030
,
00010000
00000000
00001000
00000000
00000000
01000000
00000000
01010000
,
00000000
00000000
00100000
10000000
01000000
00100000
00001000
00010000
,
00001000
00000000
00010000
00000000
00000000
00000100
00000000
00011000
,
00000000
00000000
00010000
00000100
00001000
00000100
00000010
00000001
,
00000100
00000000
00000010
00000000
00000000
00000100
00000000
00000110
,
00000000
00000000
00010000
00001000
01000000
00001000
00010000
00001000
,
01000000
00000000
00010000
00000000
00000000
01000000
00000000
10010000
,
00000000
00100000
00000000
00000000
11000000
00000000
00000000
00000000
,
00011000
00000000
00000000
00000000
;

//---------------dance-double - M.Emirzian----------------
#NOTES:
     dance-double:
     M.Emirzian:
     Hard:
     8:
     0.531,0.571,0.500,0.500,0.070,272.000,50.000,50.000,20.000,1.000,0.000:
00000000
00000000
00000000
00000000
,
00000000
00000000
00000000
00000000
,
00000000
00000000
00000000
00000000
,
00000000
00000000
00000000
00000000
,
M00M0000
10010000
00000000
00000000
11000000
00000000
00000000
00110000
,
00000000
00000000
00101000
00000000
00000000
00011000
00000000
00000000
,
00000000
01001000
00000000
00000000
00011000
00000000
00000000
00010010
,
00000000
00000000
00000000
00001010
00000000
00001001
00001100
00000000
,
00000000
00000101
00000000
00000000
00001010
00000000
00000000
00001100
,
00000000
00000000
00010100
00000000
00000000
00011000
00000000
00000000
,
00000000
01001000
00000000
00000000
00011000
00000000
00000000
00101000
,
00000000
00000000
00000000
00110000
00000000
01100000
11000000
00000000
,
00100000
10000000
01000000
00010000
01000000
10000000
00100000
00000000
,
02000000
03020000
00230000
00302000
,
00013000
00100000
00010000
00001000
01000000
00001000
00010000
00000000
,
02000000
03020000
00032000
00003020
,
00000031
00000100
00001000
00000100
00000001
00000010
00000001
00000000
,
00002000
00003020
00000230
00000302
,
00000013
00001000
00010000
00001000
01000000
00001000
00010000
00000000
,
20020000
00000000
00000000
30030000
,
00100000
00000000
11000000
00000000
MM000000
00100000
00000000
10010000
,
00000000
01000000
00100000
00010000
00100000
01000000
00010000
00001000
,
01000000
00000000
00011000
00000000
000MM000
00000100
00000000
00010100
,
00000000
00001000
00010000
01000000
00010000
00001000
00000010
00000100
,
00001000
00000000
00000101
00000000
00000M0M
00000010
00000000
00001100
,
00000000
00000001
00000100
00000010
00010000
00000100
00001000
00000001
,
00000010
00000000
00001100
00000000
0000MM00
00000001
00000000
00001010
,
00000000
00011000
00000000
01010000
00000000
0M0M0000
00100000
00000000
,
10000000
00000000
00000000
01000000
00010000
00000100
00000000
00000010
,
00000001
00000000
01000100
00000000
,
00100010
00000000
00000000
10000000
00100000
00010000
00001000
00011000
,
02002000
00000000
00000000
00000000
00000000
00000000
00000000
03003000
,
00010000
00000000
00000000
00100000
00000000
01100000
00000000
00000000
00000000
10000000
00000000
00100000
00000000
01000000
00001000
00000000
,
00010000
00000000
00000000
00000100
00000000
00001010
00000000
00000000
00000000
00000001
00000000
00000010
00000000
00000100
00001000
00000000
,
00000001
00000000
00000100
00000010
00001000
00000000
00000100
00000000
00010000
00000000
00001000
01000000
00001000
00000000
00010000
00000000
,
01000000
00000000
00100000
00010000
00100000
00000000
10000000
02200000
00000000
00000000
00000000
00000000
00000000
00000000
03300000
00000000
,
00010000
01000000
10000000
01000000
00010000
00100000
00010000
00000000
,
20000000
32000000
03200000
00320000
,
01030000
00001000
00010000
00000010
00010000
00001000
00000100
00000000
,
00000002
00000023
00000230
00002300
,
00003001
00000100
00000010
00001000
00000100
00000010
00000001
00000000
,
00002000
00003200
00020300
00032000
,
00013000
01000000
00010000
00001000
01000000
00010000
01000000
00000000
,
00200000
20300000
32000000
03200000
,
00310000
01000000
00001000
00010000
00000100
00001000
00000010
00000000
,
00000200
00000302
00000023
00000230
,
00001300
00000001
00000100
00001000
00010000
00001000
01000000
00000000
,
00002000
00023000
00030020
00000230
,
00000301
00000010
00000100
00010000
00001000
01000000
00100000
00000000
,
20000000
32000000
03200000
00320000
,
01030000
10000000
01000000
00010000
00100000
00010000
01000000
00000000
,
20020000
00000000
00000000
30030000
,
00100000
00000000
11000000
00000000
MM000000
00100000
00000000
01010000
,
00000000
10000000
01000000
10000000
00100000
01000000
00001000
00010000
,
00000100
00000000
00011000
00000000
000MM000
00000010
00000000
00001100
,
00000000
00000001
00000100
00000001
00000010
00001000
00000010
00000001
,
00001000
00000000
00001100
00000000
0000MM00
00000010
00000000
00000101
,
00000000
00000010
00000100
00001000
00010000
00000100
00010000
00001000
,
01000000
00000000
00110000
00000000
00MM0000
01000000
00000000
11000000
,
00000000
00100000
00000000
00000000
20020000
00000000
00000000
00000000
,
00100000
30030000
00000000
00000000
00000000
00000000
00000000
00000000
;

//---------------dance-double - M.Emirzian----------------
#NOTES:
     dance-double:
     M.Emirzian:
     Challenge:
     10:
     0.686,0.962,0.490,0.040,0.530,427.000,49.000,4.000,2.000,2.000,0.000:
00000000
00000000
00000000
00000000
,
00000000
00000000
00000000
00000000
,
00000000
00000000
00000000
00000000
,
00000000
00000000
00000000
00000000
,
00000000
00011000
00000000
00000000
00100010
00000000
00000000
00011000
,
00000000
00000000
01000100
00000000
00000000
00011000
00000000
00000000
,
00000000
00010001
00000000
00000000
00011000
00000000
00000000
10001000
,
00000000
00000000
00000000
01010000
00000000
01000100
00011000
00000000
,
00000000
10001000
00000000
00000000
01000100
00000000
00000000
00010001
,
00000000
00000000
00100010
00000000
00000000
00011000
00000000
00000000
,
00000000
01000100
00000000
00000000
00011000
00000000
00000000
00100010
,
00000000
00000000
00000000
00010001
00000000
00011000
10001000
00000000
,
00010000
00000000
10000000
00000000
01000000
00000000
00100000
00000000
00010000
01000000
00100000
00000000
10000000
00000000
01000000
00100000
,
00001000
00000000
00010000
00000000
00000100
00000000
00010000
00000000
00001000
00010000
00001000
00000000
00010000
00000000
00000100
00000010
,
00000001
00000000
00000001
00000000
00000010
00000000
00000100
00000000
00001000
00000001
00000100
00000000
00000010
00000000
00001000
00000100
,
00001000
00000000
00000001
00000000
00000100
00000000
00001000
00000000
00010000
00001000
00010000
00000000
00001000
00000000
01000000
00100000
,
10000000
00000000
00000000
00000000
01000000
00000000
00000000
00100000
00000000
00000000
00010000
00000000
00000000
10000000
01000000
00000000
,
00010000
00000000
00000000
00000000
00001000
00000000
00000000
00010000
00000000
00000000
01000000
00000000
00000000
00010000
00001000
00000000
,
00000100
00000000
00000000
00000000
00000001
00000000
00000000
00000010
00000000
00000000
00000001
00000000
00000000
00000100
00000000
00000010
,
00000000
00001000
00000100
00000000
00000000
00001000
00000000
00000001
00000000
00000000
00000000
00000100
00000000
00000010
00001000
00000000
,
00000100
00000000
00000010
00000000
00000001
00000000
00001000
00000100
00001000
00000100
00010000
00000000
00001000
00000000
00000100
00000000
,
00001000
00000000
00010000
00000000
00000100
00000000
00010000
00001000
00010000
00001000
01000000
00000000
00010000
00000000
00100000
00000000
,
10000000
00000000
00100000
00000000
00010000
00000000
01000000
00100000
01000000
00100000
10000000
00000000
01000000
00000000
00010000
00000000
,
00001000
00000000
01000000
00000000
00001000
00000000
00010000
00000100
00010000
00001000
00010000
00000000
00000010
00000000
00001000
00000000
,
00000100
00000000
00000010
00000000
00000001
00000000
00000100
00000010
00000100
00000010
00001000
00000000
00000100
00000000
00000001
00000000
,
00000100
00000000
00010000
00000000
00001000
00000000
01000000
00100000
01000000
00100000
01000000
00000000
00001000
00000000
00010000
00000000
,
01000000
00000000
10000000
00000000
00100000
00000000
10000000
00010000
10000000
01000000
10000000
00000000
00100000
00000000
00010000
00000000
,
00001000
00000000
00000100
00000000
00000001
00000000
00000010
00000100
00000010
00000100
00001000
00000000
00000001
00000000
00000100
00000010
,
00000110
00000000
00000000
00100010
00011000
01000100
00000000
10001000
,
00011000
000MM000
00010001
00000000
,
00000110
00000000
00000000
00011000
00100010
00011000
01000100
00010001
,
00002002
00000000
00000000
00000000
00000000
00000000
00000000
00003003
,
00000100
00000000
00000000
00010001
00000000
00010010
00000000
00000000
00000000
00010100
00000000
01000100
00000000
00001000
00010000
00000000
,
00001000
00000000
00000000
10001000
00000000
01001000
00000000
00000000
00000000
01010000
00000000
10010000
00000000
01000000
00100000
00000000
,
10000000
00000000
01000000
00000000
00100000
00000000
01000000
00000000
10000000
00000000
00100000
00000000
01000000
00000000
00100000
00000000
00010000
00000000
00001000
00000000
00000010
00000000
00000100
00000000
00000010
00000000
00000001
00000000
00000100
00000000
00000010
00000100
,
00000010
00001000
00000100
00000010
00001000
00000010
00000001
00000100
00001000
00000000
00011000
00000000
01000100
00000000
00011000
00000000
,
00010000
00000000
00100000
00000000
10000000
00000000
00010000
00000000
00100000
01000000
10000000
00000000
01000000
00000000
10000000
00010000
,
01000000
00000000
00100000
00000000
01000000
00000000
00001000
00000000
00010000
00000100
00001000
00000000
00000100
00000000
00010000
00000010
,
00001000
00000000
00000100
00000000
00000010
00000000
00000001
00000000
00001000
00000001
00000100
00000000
00001000
00000000
00010000
00000100
,
00001000
00000000
00000010
00000000
00000100
00000000
00000001
00000000
00001000
00000100
00010000
00000000
00001000
00000000
01000000
00010000
,
10000000
00000000
00000000
00000000
01000000
00000000
00000000
00100000
00000000
00000000
00010000
00000000
00000000
10000000
00100000
00000000
,
00010000
00000000
00000000
00000000
00001000
00000000
00000000
00000010
00000000
00000000
00001000
00000000
00000000
00010000
00001000
00000000
,
00000100
00000000
00000000
00000000
00001000
00000000
00000000
00010000
00000000
00000000
00000100
00000000
00000000
00000010
00000100
00000000
,
00001000
00000000
00000000
00000000
00000001
00000000
00000000
00000100
00000000
00000000
00000010
00000000
00000000
00001000
00000100
00000000
,
00001000
00000000
00000001
00000000
00000100
00000000
00000010
00000000
00001000
00000100
00001000
00000000
00000001
00000000
00000100
00000010
,
00001000
00000000
00000100
00000000
00010000
00000000
00001000
00000000
01000000
00100000
01000000
00000000
00001000
00000000
00010000
00001000
,
01000000
00000000
00010000
00000000
00100000
00000000
00010000
00000000
01000000
10000000
01000000
00000000
00010000
00000000
10000000
01000000
,
00100000
00000000
00010000
00000000
01000000
00000000
00001000
00000000
00010000
00000100
00010000
00000000
00001000
00000000
00010000
00000010
,
00001000
00000000
00000000
00000000
00000100
00000000
00000000
00000010
00000000
00000000
00000001
00000000
00000000
00000100
00000010
00000000
,
00001000
00000000
00000000
00000000
00000100
00000000
00000000
00000010
00000000
00000000
00000100
00000000
00000000
00010000
00001000
00000000
,
01000000
00000000
00000000
00000000
00100000
00000000
00000000
10000000
00000000
00000000
01000000
00000000
00000000
00100000
00001000
00000000
,
00000010
00000000
00000000
00000000
00000001
00000000
00000000
00001000
00000000
00000000
00000010
00000000
00000000
00000100
00000001
00000000
,
00000100
00000000
00000010
00000000
00001000
00000000
00000100
00000010
00000100
00000010
00000001
00000000
00000100
00000000
00000010
00000000
,
00001000
00000000
00000100
00000000
00010000
00000000
00001000
01000000
00001000
01000000
00010000
00000000
00100000
00000000
01000000
00000000
,
00100000
00000000
00010000
00000000
01000000
00000000
00100000
10000000
00100000
10000000
01000000
00000000
00100000
00000000
00010000
00000000
,
01000000
00000000
00001000
00000000
00010000
00000000
00001000
00100000
00001000
00010000
00001000
00000000
00000100
00000000
00000001
00000000
,
00001000
00000000
00000100
00000000
00000010
00000000
00000001
00001000
00000001
00001000
00000100
00000000
00001000
00000000
00000001
00000000
,
00000100
00000000
00001000
00000000
00010000
00000000
00000100
00010000
00000100
00010000
00001000
00000000
00000010
00000000
00001000
00000000
,
00010000
00000000
01000000
00000000
00100000
00000000
00010000
01000000
00100000
10000000
01000000
00000000
00100000
00000000
00010000
00000000
,
01000000
02002000
00000000
00000000
10000000
00000000
00000000
00000000
,
00110000
03003000
00000000
00000000
00000000
00000000
00000000
00000000
;

//---------------dance-single - K. Ward----------------
#NOTES:
     dance-single:
     K. Ward:
     Beginner:
     1:
     0.081,0.090,0.010,0.000,0.000,56.000,1.000,0.000,0.000,0.000,0.000:

0000
0000
0000
0000
,
0000
0000
0000
0000
,
0000
0000
0000
0000
,
0000
0000
0000
0000
,
0001
0000
0000
0000
,
0001
0000
0000
0000
,
1000
0000
0000
0000
,
1000
0000
0000
0000
,
0001
0000
0000
0000
,
0001
0000
0000
0000
,
1000
0000
0000
0000
,
1000
0000
0000
0000
,
0010
0000
0010
0000
,
0010
0000
0000
0000
,
0010
0000
0010
0000
,
0010
0000
0000
0000
,
1000
0000
0000
0000
,
0001
0000
0000
0000
,
1000
0000
0000
0000
,
0000
0000
0000
0000
,
0001
0000
0000
0000
,
0001
0000
0000
0000
,
1000
0000
0000
0000
,
1000
0000
0000
0000
,
0001
0000
0000
0000
,
0001
0000
0000
0000
,
0010
0000
0000
0000
,
0010
0000
0000
0000
,
0001
0000
0000
0000
,
1000
0000
0000
0000
,
0010
0000
0000
0000
,
0100
0000
0000
0000
,
0001
0000
0000
0000
,
0001
0000
0000
0000
,
1000
0000
0000
0000
,
1000
0000
0000
0000
,
0010
0000
0000
0000
,
0000
0000
0000
0000
,
0010
0000
0000
0000
,
0000
0000
0000
0000
,
0100
0000
0000
0000
,
0000
0000
0000
0000
,
0100
0000
0000
0000
,
0000
0000
0000
0000
,
0001
0000
0000
0000
,
1000
0000
0000
0000
,
0001
0000
0000
0000
,
1000
0000
0000
0000
,
0100
0000
0000
0000
,
1000
0000
0000
0000
,
0001
0000
0000
0000
,
1000
0000
0000
0000
,
0001
0000
0000
0000
,
0001
0000
0000
0000
,
1000
0000
0000
0000
,
1000
0000
0000
0000
,
0001
0000
0001
0000
,
0001
0000
0000
0000
,
1000
0000
1000
0000
,
1000
0000
0000
0000
,
1001
0000
0000
0000
;
